February 2017 (4689) | El caso Sloane | Download

Download Ido Portal - The Floreio Project

http://i91.fastpic.ru/big/2017/0913/d8/c43500c97dfbeb2385d6b0a24858c0d8.jpg
WEBRip | English | MP4 | 480 x 360 | AVC ~273 kbps | 25 fps
AAC | 96 Kbps | 44.1 KHz | 2 channels | 03:12:29 | 595 MB
Genre: eLearning Video / Stretching, Health

"This project is my attempt at organizing the amazing resources Ido Portal has created for us. When I first started trying to make sense of his videos and blog posts, I found that the information was in disarray. In my quest for understanding the content he has available so that I could practice it myself, this page is the result. I hope it helps you MOVE." Antranik


MediaInfo:

General
Complete name : The Shrimp Advanced.mp4
Format : MPEG-4
Format profile : Base Media / Version 2
Codec ID : mp42 (isom/mp42)
File size : 1.67 MiB
Duration : 37 s 685 ms
Overall bit rate mode : Variable
Overall bit rate : 372 kb/s
Encoded date : UTC 2014-07-29 07:27:29
Tagged date : UTC 2014-07-29 07:27:29
gsst : 0
gstd : 37848
gssd : B4A7DDA46HH1413100264337898

Video
ID : 1
Format : AVC
Format/Info : Advanced Video Codec
Format profile :
Format settings, CABAC : No
Format settings, ReFrames : 1 frame
Codec ID : avc1
Codec ID/Info : Advanced Video Coding
Duration : 37 s 680 ms
Bit rate : 273 kb/s
Maximum bit rate : 958 kb/s
Width : 480 pixels
Height : 360 pixels
Display aspect ratio : 4:3
Frame rate mode : Constant
Frame rate : 25.000 FPS
Color space : YUV
Chroma subsampling : 4:2:0
Bit depth : 8 bits
Scan type : Progressive
Bits/(Pixel*Frame) : 0.063
Stream size : 1.23 MiB (73%)
Tagged date : UTC 2014-07-29 07:27:29

Audio
ID : 2
Format : AAC
Format/Info : Advanced Audio Codec
Format profile : LC
Codec ID : 40
Duration : 37 s 685 ms
Bit rate mode : Variable
Bit rate : 96.0 kb/s
Maximum bit rate : 104 kb/s
Channel(s) : 2 channels
Channel positions : Front: L R
Sampling rate : 44.1 kHz
Frame rate : 43.066 FPS (1024 spf)
Compression mode : Lossy
Stream size : 442 KiB (26%)
Title : IsoMedia File Produced by Google, 5-11-2011
Encoded date : UTC 2014-07-29 07:27:29
Tagged date : UTC 2014-07-29 07:27:29

Screenshots

http://i89.fastpic.ru/big/2017/0913/a0/56397766708127bb8508ee9e30b63da0.jpg
http://i89.fastpic.ru/big/2017/0913/0f/db77a9d80568c6862dfbfcdf6a31a30f.jpg
http://i89.fastpic.ru/big/2017/0913/e1/003dc2fceee1065da5c9866ff9adbae1.jpg
http://i89.fastpic.ru/big/2017/0913/50/c8b7617f3ac44a1438c2988b6e351750.jpg
http://i89.fastpic.ru/big/2017/0913/fe/f11512b171d92810485661a11ff114fe.jpg
http://i91.fastpic.ru/big/2017/0913/c2/85eda28a89d0fe757b29cd95da153bc2.jpg

Download link :
(If you need these, buy and download immediately before they are delete)
Links are Interchangeable - Single Extraction - Premium is support resumable
шаблоны для dle 11.2


© Copyright 2014-2017 My Site. All Rights Reserved.
Your name:*
E-Mail:*
Security Code: *
reload, if the code cannot be seen